2160p arrow 2018 movies ita game of thrones house of cards titans s01e04 Supernatural Venom Incredibles 2 Outlander big bang theory español ddr ufc 230 UFC 2018 ITA ncis The Predator alpha Evo 0 the big bang theory s12e07 Empire ettv fabbriciani arrow español survivor Star Trek Discovery The Walking dead damerini Greys Anatomy ethd Doctor Who Supergirl haberkamp ita 2018 star trek discovery español dtone van helsing in mo yang WWE champian fulton It the flash titans seal team vikings blindspot coral egan shameless etrg etmovies venom ita evo office 2019 fgt Lucifer oceans eleven Big Bang Theory NFL Dtone great british bake off s09e10 ray donovan the nun The Equalizer 2 modern family Gotham A Discovery of Witches Outlander S04E01 hindi doctor who s11e05 the big bang theory 
Warning! Do not Download Without a VPN!
Your IP Address is .   Location is
Download and surf securely, stream unlimited and protect your personal data!
We strongly recommend using SpyOFF VPN!
Become Anonymous with SpyOFF
ETTV Recommended TV Shows
UFC 230 Cormier vs Lewis HDTV x264-Star [TJET] torrent
Ray.Donovan.S06E02.WEBRip.x264-PBS[ettv] torrent
Outlander.S04E01.WEB.H264-MEMENTO[ettv] torrent
Doctor.Who.2005.S11E05.HDTV.x264-MTB[ettv] torrent

ETTV Recommended Xvid
The.Meg.2018.BDRip.XviD.AC3-EVO[EtMovies] torrent
The.First.Date.2018.HDRip.XviD.AC3-EVO[EtMovies] torrent
BlacKkKlansman.2018.BRRip.XviD.AC3-EVO[EtMovies] torrent
The Hate U Give.2018.HC.HDRip.XviD.AC3-EVO[EtMovies] torrent

ETTV Recommended HD
The Marine 6.Close Quarters.720p.WEB-DL.H264.AC3-EVO[EtHD] torrent
The Hate U Give.2018.1080p.HC.HDRip.X264.AC3-EVO[EtHD] torrent
Generational.Sins.2017.1080p.AMZN.WEB-DL.DDP5.1.H.264-NTb[EtHD] torrent
Robin.Hood.The.Rebellion.2018.1080p.WEB-DL.DD5.1.H264-CMRG[EtHD] torrent

ETTV Recommended UHD
The.Matrix.Revolutions.2003.Multi.mUHD.2160p.x265.HDR.DD.5.1-DTOne torrent
The.Fog.1980.Multi.UHD.2160p.Bluray.x265.HDR.TS.5.1-DTOne torrent
They.Live.1988.Multi.UHD.2160p.Bluray.x265.HDR.DTS.5.1-DTOne torrent
Blade Runner 2049 (2017) 4K UHD BluRay x264 DTS Alien4 torrent

ETTV Recommended Cam
Hunter Killer 2018 HDCAM.XViD.AC3-ETRG torrent
Replicas 2018.HDCAM.x264.AC3-ETRG torrent
Bohemian Rhapsody 2018 HDCAM.XViD.AC3-ETRG torrent
The Nutcracker and the Four Realms 2018 HDCAM x264 AC3-ETRG torrent

ETTV Recommended Foreign
Raatchasan (2018) 720p x265 AAC 5.1 - DTOne torrent
Dans la brume 2018 1080p BluRay DD5.1 x264-SPEED[EtHD] torrent
Sleepy Hollow (1999) 720p BluRay x264 Dual Audio [Hindi DD5.1 - English DD5.1] - ESUB ~ Ranvijay torrent
5 Weddings 2018 PreDvd Hindi 720p x264 AAC - mkvCinemas torrent

Social


Download Torrent "Outlander (2014) Season 01 S01 (1080p BluRay x265 HEVC 10bit AAC 5.1 Joy) [..."

IMDB Details
Description:

An English combat nurse from 1945 is mysteriously swept back in time to 1743.

Genre:

Drama, Fantasy, Romance

Download Torrent (Magnet)
Download Torrent (File)
Seeds: 14
Leechers: 16
Completed: 266 
Last Checked: 26-04-2018 09:10:05


Details
Title:Outlander (2014) Season 01 S01 (1080p BluRay x265 HEVC 10bit AAC 5.1 Joy) [...
Description:





Media Information
General
Format                                   : Matroska
Format version                           : Version 4 / Version 2
File size                                : 649 MiB
Duration                                 : 1 h 3 min
Overall bit rate                         : 1 430 kb/s
Encoded date                             : UTC 2018-04-23 05:36:20
Writing application                      : mkvmerge v21.0.0 ('Tardigrades Will Inherit The Earth') 64-bit
Writing library                          : libebml v1.3.5 + libmatroska v1.4.8
Writing frontend                         : StaxRip v1.7.0.6

Video
ID                                       : 1
Format                                   : HEVC
Format/Info                              : High Efficiency Video Coding
Format profile                           : Main [email protected]@Main
Codec ID                                 : V_MPEGH/ISO/HEVC
Duration                                 : 1 h 3 min
Bit rate                                 : 1 201 kb/s
Width                                    : 1 920 pixels
Height                                   : 1 080 pixels
Display aspect ratio                     : 16:9
Frame rate mode                          : Constant
Frame rate                               : 23.976 (24000/1001) FPS
Original frame rate                      : 24.000 FPS
Color space                              : YUV
Chroma subsampling                       : 4:2:0
Bit depth                                : 10 bits
Bits/(Pixel*Frame)                       : 0.024
Stream size                              : 545 MiB (84%)
Writing library                          : x265 2.7+2-22c127ff05d5:[Windows][MSVC 1900][64 bit] 10bit
Encoding settings                        : cpuid=1173503 / frame-threads=3 / numa-pools=8 / wpp / no-pmode / no-pme / no-psnr / ssim / log-level=2 / input-csp=1 / input-res=1920x1080 / interlace=0 / total-frames=91360 / level-idc=0 / high-tier=1 / uhd-bd=0 / ref=4 / no-allow-non-conformance / no-repeat-headers / annexb / no-aud / no-hrd / info / hash=0 / no-temporal-layers / open-gop / min-keyint=24 / keyint=250 / gop-lookahead=0 / bframes=4 / b-adapt=2 / b-pyramid / bframe-bias=0 / rc-lookahead=25 / lookahead-slices=4 / scenecut=40 / radl=0 / no-intra-refresh / ctu=64 / min-cu-size=8 / rect / no-amp / max-tu-size=32 / tu-inter-depth=1 / tu-intra-depth=1 / limit-tu=0 / rdoq-level=2 / dynamic-rd=0.00 / ssim-rd / signhide / no-tskip / nr-intra=0 / nr-inter=0 / no-constrained-intra / strong-intra-smoothing / max-merge=3 / limit-refs=3 / limit-modes / me=3 / subme=3 / merange=57 / temporal-mvp / weightp / weightb / no-analyze-src-pics / deblock=0:0 / sao / sao-non-deblock / rd=6 / no-early-skip / rskip / no-fast-intra / no-tskip-fast / no-cu-lossless / b-intra / no-splitrd-skip / rdpenalty=0 / psy-rd=5.00 / psy-rdoq=1.55 / no-rd-refine / no-lossless / cbqpoffs=0 / crqpoffs=0 / rc=abr / bitrate=1200 / qcomp=0.60 / qpstep=4 / stats-write=0 / stats-read=2 / cplxblur=20.0 / qblur=0.5 / ipratio=1.40 / pbratio=1.30 / aq-mode=3 / aq-strength=1.00 / cutree / zone-count=0 / no-strict-cbr / qg-size=32 / no-rc-grain / qpmax=69 / qpmin=0 / no-const-vbv / sar=0 / overscan=0 / videoformat=5 / range=0 / colorprim=2 / transfer=2 / colormatrix=2 / chromaloc=0 / display-window=0 / max-cll=0,0 / min-luma=0 / max-luma=1023 / log2-max-poc-lsb=8 / vui-timing-info / vui-hrd-info / slices=1 / no-opt-qp-pps / no-opt-ref-list-length-pps / multi-pass-opt-rps / scenecut-bias=0.05 / no-opt-cu-delta-qp / no-aq-motion / no-hdr / no-hdr-opt / no-dhdr10-opt / analysis-reuse-level=5 / scale-factor=0 / refine-intra=0 / refine-inter=0 / refine-mv=0 / limit-sao / ctu-info=0 / no-lowpass-dct / refine-mv-type=0 / copy-pic=1
Default                                  : Yes
Forced                                   : No

Audio
ID                                       : 2
Format                                   : AAC
Format/Info                              : Advanced Audio Codec
Format profile                           : HE-AACv2 / HE-AAC / LC
Codec ID                                 : A_AAC
Duration                                 : 1 h 3 min
Bit rate                                 : 227 kb/s
Channel(s)                               : 6 channels
Channel(s)_Original                      : 2 channels / 7 channels / 7 channels
Channel positions                        : Front: L R / Front: L C R, Side: 4 / Front: L C R, Side: 4
Sampling rate                            : 48.0 kHz / 48.0 kHz / 24.0 kHz
Frame rate                               : 23.438 FPS (1024 spf)
Compression mode                         : Lossy
Delay relative to video                  : 31 ms
Stream size                              : 103 MiB (16%)
Language                                 : English
Default                                  : Yes
Forced                                   : No

Subtitle #1
ID                                       : 3
Format                                   : UTF-8
Codec ID                                 : S_TEXT/UTF8
Codec ID/Info                            : UTF-8 Plain Text
Duration                                 : 1 h 1 min
Bit rate                                 : 54 b/s
Count of elements                        : 815
Stream size                              : 24.8 KiB (0%)
Language                                 : English
Default                                  : No
Forced                                   : No

Subtitle #2
ID                                       : 4
Format                                   : UTF-8
Codec ID                                 : S_TEXT/UTF8
Codec ID/Info                            : UTF-8 Plain Text
Duration                                 : 1 h 1 min
Bit rate                                 : 49 b/s
Count of elements                        : 696
Stream size                              : 22.3 KiB (0%)
Language                                 : English
Default                                  : No
Forced                                   : No

Source Information
Release:
Outlander.S01E01.1080p.BluRay.x264-FLHD.mkv (4.36 GBs)



UTR wrote:

Note From UTR
We have no issue with individuals posting or re-uploading our torrents on a platform we aren't on. However, if this is something you'd like to do, please do so in a 'as-is' format. We ask that you do not create a new torrent, include all descriptions you see above including the UTR logo, tags, notes and screenshots. If you'd like to become a permanent poster on a website we don't post to, feel free to get in contact with a UniTeam member.

If possible please donate: BTC 1QA5fum5AyXvWzdVCkQzUNvw3Ef15fHRaR




Category:TV > HEVC/x265
Lang:English  English
Total Size:9.27 GB
Info Hash:481c50fbd1b8419b32e20e15f99be843d67c84c0
Added By:UTR
Date Added:26-04-2018 09:10:00

Files

File List: 
 File Size
Encoded by JoyBell (UTR).txt2.57 kB
folder.jpg588.12 kB
How to play HEVC (THIS FILE).txt3.01 kB
Ninite K-Lite Codecs Unattended Silent Installer and Updater.website561.00 B
Outlander S01E01 Sassenach (1080p x265 10bit S72 Joy).mkv649 MB
Outlander S01E02 Castle Leoch (1080p x265 10bit S81 Joy).mkv605 MB
Outlander S01E03 The Way Out (1080p x265 10bit S81 Joy).mkv566 MB
Outlander S01E04 The Gathering (1080p x265 10bit S83 Joy).mkv576 MB
Outlander S01E05 Rent (1080p x265 10bit S79 Joy).mkv583 MB
Outlander S01E06 The Garrison Commander (1080p x265 10bit S82 Joy).mkv581 MB
Outlander S01E07 The Wedding (1080p x265 10bit S84 Joy).mkv556 MB
Outlander S01E08 Both Sides Now (1080p x265 10bit S78 Joy).mkv563 MB
Outlander S01E09 The Reckoning EXTENDED (1080p x265 10bit S86 Joy).mkv728 MB
Outlander S01E10 By the Pricking of My Thumbs (1080p x265 10bit S84 Joy).mkv595 MB
Outlander S01E11 The Devil's Mark (1080p x265 10bit S83 Joy).mkv595 MB
Outlander S01E12 Lallybroch (1080p x265 10bit S82 Joy).mkv581 MB
Outlander S01E13 The Watch (1080p x265 10bit S83 Joy).mkv575 MB
Outlander S01E14 The Search (1080p x265 10bit S80 Joy).mkv585 MB
Outlander S01E15 Wentworth Prison (1080p x265 10bit S85 Joy).mkv565 MB
Outlander S01E16 To Ransom a Man's Soul (1080p x265 10bit S84 Joy).mkv588 MB



Loading...
Comments

There are currently no comments. Be the first one to write something !

Disclaimer: None of the files shown here are actually hosted or transmitted by this server. The links are provided solely by this site's users. The site moderation is also a service provided by the site's users. The administrator of this site (ettv.tv) cannot be held responsible for what its users post, or any other actions of its users. You may not use this site to distribute or download any material when you do not have the legal rights to do so. It is your own responsibility to adhere to these terms.

SitemapWatch Show | Marvel's Iron Fist | Lux Golden Divas Baatein with the Baadshah